DNS SERVER AENDERNum der staatlichen Zensur zu umgehen. Sollten wir von eurem Provider geseprrt werden, nutzt den TOR BROWSER oder ändert euren DNS SERVER.

Filmwünsche können bei uns im Forum abgegeben werden

Wir Speichern Nicht




 
 
 
Top Releases
Das.Haus.der.geheimnisvollen...
Leave.No.Trace.2018.German.D...
Leave.No.Trace.2018.German.D...
Das.Haus.der.geheimnisvollen...
Alpha.2018.German.1080p.DL.D...
Alpha.2018.German.DTS.DL.108...
Manchester.by.the.Sea.2016.G...
Summer.of.84.2018.German.DL....
Mile.22.2018.German.DL.AC3.D...
Mile.22.2018.German.DL.AC3.D...

Cinedubs
Dont.Worry.weglaufen.geht.ni...
Dont.Worry.weglaufen.geht.ni...
Gaensehaut.2.Gruseliges.Hall...
Aquaman.TS.LD.German.DL.720p...
Eho.Echo.German.720p.WEBRip....
Eho.Echo.German.1080p.WEBRip...
Bad.Times.at.the.El.Royale.2...
Bad.Spies.2018.German.DL.AC3...
Aquaman.2018.GERMAN.AC3.MD.7...
Bad.Spies.German.DL.AC3.Dubb...

Neuerscheinungen 2018-19
Ab.durch.die.Hecke.Over.The....
Ein.verlockendes.Spiel.2008....
Ein.verlockendes.Spiel.2008....
Welcome.Home.2018.German.AC3...
Der.mit.dem.Schlag.2016.GERM...
Kryo.2016.GERMAN.720p.HDTV.x...
The.Nun.2018.MULTi.COMPLETE....
Mein.bester.Feind.German.AC3...
Superfly.2018.German.AC3.5.1...
Superfly.2018.German.DL.AC3....

XXX
SweetheartVideo.18.12.27.Gin...
WildOnCam.18.12.27.Scarlett....
TransAngels.18.10.11.Aubrey....
TransAngels.18.10.27.Domino....
WcpClub.18.12.28.Jayden.Star...
TransAngels.18.09.29.Aubrey....
TransAngels.18.11.03.Jane.Ma...
TransAngels.18.10.08.Natalie...
TransAngels.18.09.20.Chanel....
Shoplyfter.18.12.26.Harmony....
TransAngels.18.11.24.Katrina...
Sounds.Of.Fury.XXX.720p.WEBR...
WankItNow.18.12.25.Laura.Chr...
WildOnCam.18.12.26.Britney.A...
TransAngels.18.12.08.Nikki.J...
TransAngels.18.10.25.Aubrey....
ThisGirlSucks.18.12.26.Cara....
TransAngels.18.09.08.Alisia....
WhenGirlsPlay.18.12.27.Hanna...
WhenGirlsPlay.18.12.25.Julia...

3D
Blade.Runner.2049.3D.2017.Ge...
Walhalla.Rising.3D.2009.DUAL...
Sleepwalker.3D.2011.DUAL.COM...
Bis.an.die.Grenzen.des.Unive...
Best.of.3D.vol.13.-.15.GERMA...
Limbradur.und.die.Magie.der....
Kaluoka.Hina.Das.Zauberriff....
Limbradur.und.die.Magie.der....
Smallfoot.3D.2018.COMPLETE.B...
Smallfoot.Ein.eisigartiges.A...
Skyscraper.3D.2018.German.DL...
Meg.3D.2018.MULTi.COMPLETE.B...
Meg.3D.2018.German.DL.1080p....
Gans.im.Glueck.3D.2018.MULTi...
The.Art.of.Flight.3D.2011.Ge...

Old_Stuff
Todfreunde.aka.Bad.Influence...
Animatrix.2003.German.DL.108...
Animatrix.2003.German.DL.720...
Akte.X.S06.German.DTS.DL.108...
The.Beauty.of.Gemina.Minor.S...
ZZ.Top.Live.from.Texas.2008....
Peter.Hase.2018.German.DL.10...
Akte.X.S05.German.DTS.DL.108...
Akte.X.S04.German.DTS.DL.108...
Akte.X.S03.German.DTS.DL.108...
Dunkirk.1958.COMPLETE.BLURAY...
Das.Wunder.von.Manhattan.199...
The.Amazing.Spiderman.2.Rise...
Rise.of.the.Predator.2014.Ge...
Detective.Dee.und.das.Geheim...

Filme
The.Good.Doctor.S02.German.D...
The.Good.Doctor.S02.German.D...
Berlin.Station.S03.GERMAN.DL...
Berlin.Station.S03.GERMAN.72...
A.Star.is.Born.2018.German.A...
Die.Rueckkehr.des.Eisvogels....
Leaves.of.Grass.2009.German....
Die.Wendeltreppe.1946.German...
The.Saint.-.Der.Mann.ohne.Na...
The.Saint.-.Der.Mann.ohne.Na...
360.Grad.Geo.Reportage.E511....
Smallfoot.Ein.eisigartiges.A...
Sherlock.Holmes.Das.Haus.des...
Sherlock.Holmes.Das.Zeichen....
Sherlock.Holmes.Der.Koenig.d...
Sherlock.Holmes.Der.begehrte...
Orange.is.the.New.Black.S01-...
360.Grad.Geo.Reportage.E510....
Sherlock.Holmes.Das.Spinnenn...
The.Nun.2018.German.DL.2160p...
Tom.Sawyers.Abenteuer.1973.G...
Die.Bucht.2009.German.AC3D.D...
Two.and.a.half.Men.S01.COMPL...
Lucky.Number.Slevin.2006.Ger...

 
 
Shadow.Dancer.2012.German.DL.1080p.BluRay.x264-ENCOUNTERS

Jahr: 2012
Genre: Drama, Thriller
Sprache: Deutsch DTS | Englisch DTS
Laufzeit: 1h 41mn
Bitrate: 9 489 Kbps
Format: MKV
Größe: 6.73 GiB
Release:

Beschreibung:

Seitdem ihr kleiner Bruder einst von britischen Sicherheitskräften getötet wurde, weiß Colette um die Schrecken des Nordirlandkonflikts. Inzwischen ist sie selbst Mutter und hat den Kampf gegen die ungeliebten Besatzer noch immer nicht aufgegeben. Bei dem Versuch, eine Bombe in einem Londoner U-Bahnhof zu platzieren, wird Colette verhaftet. Ein britischer Geheimdienstoffizier stellt sie vor die Wahl: Entweder die Familie ausspionieren und ihren kleinen Sohn wiedersehen oder schweigen und lebenslang ins Gefängnis wandern.



Complete name                            : encounters-shadowdancer_1080p.mkv
Format                                   : Matroska
Format version                           : Version 4 / Version 2
File size                                : 6.73 GiB
Duration                                 : 1h 41mn
Overall bit rate                         : 9 489 Kbps
Encoded date                             : UTC 2013-11-20 23:16:26
Writing application                      : mkvmerge v6.5.0 ('Isn't she lovely') built on Oct 20 2013 12:50:05
Writing library                          : libebml v1.3.0 + libmatroska v1.4.1

Video
ID                                       : 1
Format                                   : AVC
Format/Info                              : Advanced Video Codec
Format profile                           : High@L4.1
Format settings, CABAC                   : Yes
Format settings, ReFrames                : 5 frames
Codec ID                                 : V_MPEG4/ISO/AVC
Duration                                 : 1h 41mn
Bit rate                                 : 6 282 Kbps
Width                                    : 1 920 pixels
Height                                   : 816 pixels
Display aspect ratio                     : 2.35:1
Frame rate mode                          : Constant
Frame rate                               : 23.976 fps
Color space                              : YUV
Chroma subsampling                       : 4:2:0
Bit depth                                : 8 bits
Scan type                                : Progressive
Bits/(Pixel*Frame)                       : 0.167
Stream size                              : 4.45 GiB (66%)
Title                                    : encounters-shadowdancer_1080p
Writing library                          : x264 core 140 r2377 1ca7bb9
Encoding settings                        : cabac=1 / ref=5 / deblock=1:-1:-1 / analyse=0x3:0x133 / me=umh / subme=7 / psy=1 / psy_rd=1.00:0.15 / mixed_ref=1 / me_range=16 / chroma_me=1 / trellis=1 / 8x8dct=1 / cqm=0 / deadzone=21,11 / fast_pskip=0 / chroma_qp_offset=-3 / threads=12 / lookahead_threads=2 / sliced_threads=0 / nr=0 / decimate=1 / interlaced=0 / bluray_compat=0 / constrained_intra=0 / bframes=3 / b_pyramid=2 / b_adapt=1 / b_bias=0 / direct=1 / weightb=1 / open_gop=0 / weightp=2 / keyint=250 / keyint_min=23 / scenecut=40 / intra_refresh=0 / rc_lookahead=40 / rc=crf / mbtree=1 / crf=20.0 / qcomp=0.60 / qpmin=0 / qpmax=69 / qpstep=4 / ip_ratio=1.40 / aq=1:1.00
Default                                  : Yes
Forced                                   : No

Audio #1
ID                                       : 2
Format                                   : DTS
Format/Info                              : Digital Theater Systems
Mode                                     : 16
Format settings, Endianness              : Big
Codec ID                                 : A_DTS
Duration                                 : 1h 41mn
Bit rate mode                            : Constant
Bit rate                                 : 1 509 Kbps
Channel(s)                               : 6 channels
Channel positions                        : Front: L C R, Side: L R, LFE
Sampling rate                            : 48.0 KHz
Bit depth                                : 24 bits
Compression mode                         : Lossy
Stream size                              : 1.07 GiB (16%)
Title                                    : German_DTS_1510kbps
Language                                 : German
Default                                  : Yes
Forced                                   : No

Audio #2
ID                                       : 3
Format                                   : DTS
Format/Info                              : Digital Theater Systems
Mode                                     : 16
Format settings, Endianness              : Big
Codec ID                                 : A_DTS
Duration                                 : 1h 41mn
Bit rate mode                            : Constant
Bit rate                                 : 1 509 Kbps
Channel(s)                               : 6 channels
Channel positions                        : Front: L C R, Side: L R, LFE
Sampling rate                            : 48.0 KHz
Bit depth                                : 24 bits
Compression mode                         : Lossy
Stream size                              : 1.07 GiB (16%)
Title                                    : Englisch_DTS_1510kbps
Language                                 : English
Default                                  : No
Forced                                   : No

Text
ID                                       : 4
Format                                   : UTF-8
Codec ID                                 : S_TEXT/UTF8
Codec ID/Info                            : UTF-8 Plain Text
Title                                    : forced_ger.srt
Language                                 : German
Default                                  : Yes
Forced                                   : No


Download:
Share Online Share OnlineShare OnlineShare Online
 

Kommentare