DNS SERVER AENDERNum der staatlichen Zensur zu umgehen. Sollten wir von eurem Provider geseprrt werden, nutzt den TOR BROWSER oder ändert euren DNS SERVER.

Filmwünsche können bei uns im Forum abgegeben werden

Wir Speichern Nicht




 
 
 
Top Releases
Das.Haus.der.geheimnisvollen...
Leave.No.Trace.2018.German.D...
Leave.No.Trace.2018.German.D...
Das.Haus.der.geheimnisvollen...
Alpha.2018.German.1080p.DL.D...
Alpha.2018.German.DTS.DL.108...
Manchester.by.the.Sea.2016.G...
Summer.of.84.2018.German.DL....
Mile.22.2018.German.DL.AC3.D...
Mile.22.2018.German.DL.AC3.D...

Cinedubs
Dont.Worry.weglaufen.geht.ni...
Dont.Worry.weglaufen.geht.ni...
Gaensehaut.2.Gruseliges.Hall...
Aquaman.TS.LD.German.DL.720p...
Eho.Echo.German.720p.WEBRip....
Eho.Echo.German.1080p.WEBRip...
Bad.Times.at.the.El.Royale.2...
Bad.Spies.2018.German.DL.AC3...
Aquaman.2018.GERMAN.AC3.MD.7...
Bad.Spies.German.DL.AC3.Dubb...

Neuerscheinungen 2018-19
Ab.durch.die.Hecke.Over.The....
Ein.verlockendes.Spiel.2008....
Ein.verlockendes.Spiel.2008....
Welcome.Home.2018.German.AC3...
Der.mit.dem.Schlag.2016.GERM...
Kryo.2016.GERMAN.720p.HDTV.x...
The.Nun.2018.MULTi.COMPLETE....
Mein.bester.Feind.German.AC3...
Superfly.2018.German.AC3.5.1...
Superfly.2018.German.DL.AC3....

XXX
TransAngels.18.10.01.Natassi...
TransAngels.18.10.20.Dita.Di...
SweetheartVideo.18.12.27.Gin...
WildOnCam.18.12.27.Scarlett....
TransAngels.18.10.11.Aubrey....
TransAngels.18.10.27.Domino....
WcpClub.18.12.28.Jayden.Star...
TransAngels.18.09.29.Aubrey....
TransAngels.18.11.03.Jane.Ma...
TransAngels.18.10.08.Natalie...
TransAngels.18.09.20.Chanel....
Shoplyfter.18.12.26.Harmony....
TransAngels.18.11.24.Katrina...
Sounds.Of.Fury.XXX.720p.WEBR...
WankItNow.18.12.25.Laura.Chr...
WildOnCam.18.12.26.Britney.A...
TransAngels.18.12.08.Nikki.J...
TransAngels.18.10.25.Aubrey....
ThisGirlSucks.18.12.26.Cara....
TransAngels.18.09.08.Alisia....

3D
Blade.Runner.2049.3D.2017.Ge...
Walhalla.Rising.3D.2009.DUAL...
Sleepwalker.3D.2011.DUAL.COM...
Bis.an.die.Grenzen.des.Unive...
Best.of.3D.vol.13.-.15.GERMA...
Limbradur.und.die.Magie.der....
Kaluoka.Hina.Das.Zauberriff....
Limbradur.und.die.Magie.der....
Smallfoot.3D.2018.COMPLETE.B...
Smallfoot.Ein.eisigartiges.A...
Skyscraper.3D.2018.German.DL...
Meg.3D.2018.MULTi.COMPLETE.B...
Meg.3D.2018.German.DL.1080p....
Gans.im.Glueck.3D.2018.MULTi...
The.Art.of.Flight.3D.2011.Ge...

Old_Stuff
Todfreunde.aka.Bad.Influence...
Animatrix.2003.German.DL.108...
Animatrix.2003.German.DL.720...
Akte.X.S06.German.DTS.DL.108...
The.Beauty.of.Gemina.Minor.S...
ZZ.Top.Live.from.Texas.2008....
Peter.Hase.2018.German.DL.10...
Akte.X.S05.German.DTS.DL.108...
Akte.X.S04.German.DTS.DL.108...
Akte.X.S03.German.DTS.DL.108...
Dunkirk.1958.COMPLETE.BLURAY...
Das.Wunder.von.Manhattan.199...
The.Amazing.Spiderman.2.Rise...
Rise.of.the.Predator.2014.Ge...
Detective.Dee.und.das.Geheim...

Filme
The.Good.Doctor.S02.German.D...
The.Good.Doctor.S02.German.D...
Berlin.Station.S03.GERMAN.DL...
Berlin.Station.S03.GERMAN.72...
A.Star.is.Born.2018.German.A...
Die.Rueckkehr.des.Eisvogels....
Leaves.of.Grass.2009.German....
Die.Wendeltreppe.1946.German...
The.Saint.-.Der.Mann.ohne.Na...
The.Saint.-.Der.Mann.ohne.Na...
360.Grad.Geo.Reportage.E511....
Smallfoot.Ein.eisigartiges.A...
Sherlock.Holmes.Das.Haus.des...
Sherlock.Holmes.Das.Zeichen....
Sherlock.Holmes.Der.Koenig.d...
Sherlock.Holmes.Der.begehrte...
Orange.is.the.New.Black.S01-...
360.Grad.Geo.Reportage.E510....
Sherlock.Holmes.Das.Spinnenn...
The.Nun.2018.German.DL.2160p...
Tom.Sawyers.Abenteuer.1973.G...
Die.Bucht.2009.German.AC3D.D...
Two.and.a.half.Men.S01.COMPL...
Lucky.Number.Slevin.2006.Ger...

 
 
Ein.Wunder.S01.GERMAN.DL.AC3.720p.HDTV.x264-hrs

Jahr: 2018
Genre: Drama
Sprache: Deutsch AC3 | Französisch AC3
Laufzeit: 45min je Folge
Bitrate: 3500 Kbps
Format: MKV
Größe: 1,4 GB je Folge
Release:

Beschreibung:

Bei einem italienischen Mafiaboss wird eine Razzia durchgeführt, dabei entdecken die Polizisten eine Marienstatue, die unaufhörlich Blut weint. Unter größter Geheimhaltung wird das Phänomen unter- sucht, entzieht sich aber allen Gesetzen der Physik. Nach und nach geraten immer mehr Menschen in den Bann der Statue. Von Italiens atheistischem Ministerpräsidenten und seiner schönen Frau Sole über Wissenschaftlerin Sandra bis hin zu Priester Marcello, der vom Glauben abzufallen droht, verstricken sich immer mehr Schicksale mit der Marienfigur. Alle sind getrieben von der Suche nach Antworten, doch diese scheinen noch in unerreichbarer Ferne zu liegen …

 

enthaltene Folgen:

Ein.Wunder.S01E01.Die.Erhaltung.der.Masse.GERMAN.DL.AC3.720p.HDTV.x264-hrs

Ein.Wunder.S01E02.Ausgenommen.Lazarus.GERMAN.DL.AC3.720p.HDTV.x264-hrs

Ein.Wunder.S01E03.Die.Pflicht.der.Lebenden.GERMAN.DL.AC3.720p.HDTV.x264-hrs



General
Complete name                            : Ein.Wunder.S01E01.Die.Erhaltung.der.Masse.GERMAN.DL.AC3.720p.HDTV.x264-hrs\hrs-wunder.hdtv.7p-101.mkv
Format                                   : Matroska
Format version                           : Version 4 / Version 2
File size                                : 1.36 GiB
Duration                                 : 46mn 18s
Overall bit rate                         : 4 212 Kbps
Encoded date                             : UTC 2019-01-10 22:58:17
Writing application                      : Lavf55.37.102
Writing library                          : Lavf55.37.102

Video
ID                                       : 1
Format                                   : AVC
Format/Info                              : Advanced Video Codec
Format profile                           : High@L3.2
Format settings, CABAC                   : Yes
Format settings, ReFrames                : 4 frames
Codec ID                                 : V_MPEG4/ISO/AVC
Duration                                 : 46mn 18s
Bit rate                                 : 3 500 Kbps
Width                                    : 1 280 pixels
Height                                   : 720 pixels
Display aspect ratio                     : 16:9
Frame rate mode                          : Constant
Frame rate                               : 25.000 fps
Color space                              : YUV
Chroma subsampling                       : 4:2:0
Bit depth                                : 8 bits
Scan type                                : Progressive
Bits/(Pixel*Frame)                       : 0.152
Stream size                              : 1.09 GiB (80%)
Writing library                          : x264 core 142 r2431
Encoding settings                        : cabac=1 / ref=4 / deblock=1:0:0 / analyse=0x3:0x133 / me=hex / subme=7 / psy=1 / psy_rd=1.00:0.00 / mixed_ref=0 / me_range=16 / chroma_me=1 / trellis=1 / 8x8dct=1 / cqm=0 / deadzone=21,11 / fast_pskip=1 / chroma_qp_offset=-2 / threads=12 / lookahead_threads=2 / sliced_threads=0 / nr=0 / decimate=1 / interlaced=0 / bluray_compat=0 / constrained_intra=0 / bframes=3 / b_pyramid=0 / b_adapt=1 / b_bias=0 / direct=3 / weightb=1 / open_gop=0 / weightp=0 / keyint=250 / keyint_min=25 / scenecut=40 / intra_refresh=0 / rc_lookahead=40 / rc=abr / mbtree=1 / bitrate=3500 / ratetol=1.0 / qcomp=0.60 / qpmin=10 / qpmax=51 / qpstep=4 / vbv_maxrate=24000 / vbv_bufsize=24000 / nal_hrd=none / filler=0 / ip_ratio=1.40 / aq=1:1.00
Default                                  : Yes
Forced                                   : No

Audio #1
ID                                       : 2
Format                                   : AC-3
Format/Info                              : Audio Coding 3
Mode extension                           : CM (complete main)
Format settings, Endianness              : Big
Codec ID                                 : A_AC3
Duration                                 : 46mn 18s
Bit rate mode                            : Constant
Bit rate                                 : 384 Kbps
Channel(s)                               : 2 channels
Channel positions                        : Front: L R
Sampling rate                            : 48.0 KHz
Bit depth                                : 16 bits
Compression mode                         : Lossy
Delay relative to video                  : 28ms
Stream size                              : 127 MiB (9%)
Language                                 : German
Default                                  : Yes
Forced                                   : No

Audio #2
ID                                       : 3
Format                                   : AC-3
Format/Info                              : Audio Coding 3
Mode extension                           : CM (complete main)
Format settings, Endianness              : Big
Codec ID                                 : A_AC3
Duration                                 : 46mn 18s
Bit rate mode                            : Constant
Bit rate                                 : 384 Kbps
Channel(s)                               : 2 channels
Channel positions                        : Front: L R
Sampling rate                            : 48.0 KHz
Bit depth                                : 16 bits
Compression mode                         : Lossy
Delay relative to video                  : 29ms
Stream size                              : 127 MiB (9%)
Language                                 : French
Default                                  : Yes
Forced                                   : No



Download:
Share-Online.biz Share-Online.bizShare-Online.bizShare-Online.biz | Rapidgator.net Rapidgator.netRapidgator.netRapidgator.net
 

Kommentare