DNS SERVER AENDERNum der staatlichen Zensur zu umgehen. Sollten wir von eurem Provider geseprrt werden, nutzt den TOR BROWSER oder ändert euren DNS SERVER.

Filmwünsche können bei uns im Forum abgegeben werden

Wir Speichern Nicht




 
 
 
Top Releases
Das.Haus.der.geheimnisvollen...
Leave.No.Trace.2018.German.D...
Leave.No.Trace.2018.German.D...
Das.Haus.der.geheimnisvollen...
Alpha.2018.German.1080p.DL.D...
Alpha.2018.German.DTS.DL.108...
Manchester.by.the.Sea.2016.G...
Summer.of.84.2018.German.DL....
Mile.22.2018.German.DL.AC3.D...
Mile.22.2018.German.DL.AC3.D...

Cinedubs
Dont.Worry.weglaufen.geht.ni...
Dont.Worry.weglaufen.geht.ni...
Gaensehaut.2.Gruseliges.Hall...
Aquaman.TS.LD.German.DL.720p...
Eho.Echo.German.720p.WEBRip....
Eho.Echo.German.1080p.WEBRip...
Bad.Times.at.the.El.Royale.2...
Bad.Spies.2018.German.DL.AC3...
Aquaman.2018.GERMAN.AC3.MD.7...
Bad.Spies.German.DL.AC3.Dubb...

Neuerscheinungen 2018-19
Ab.durch.die.Hecke.Over.The....
Ein.verlockendes.Spiel.2008....
Ein.verlockendes.Spiel.2008....
Welcome.Home.2018.German.AC3...
Der.mit.dem.Schlag.2016.GERM...
Kryo.2016.GERMAN.720p.HDTV.x...
The.Nun.2018.MULTi.COMPLETE....
Mein.bester.Feind.German.AC3...
Superfly.2018.German.AC3.5.1...
Superfly.2018.German.DL.AC3....

XXX
TransAngels.18.10.27.Domino....
WcpClub.18.12.28.Jayden.Star...
TransAngels.18.09.29.Aubrey....
TransAngels.18.11.03.Jane.Ma...
TransAngels.18.10.08.Natalie...
TransAngels.18.09.20.Chanel....
Shoplyfter.18.12.26.Harmony....
TransAngels.18.11.24.Katrina...
Sounds.Of.Fury.XXX.720p.WEBR...
WankItNow.18.12.25.Laura.Chr...
WildOnCam.18.12.26.Britney.A...
TransAngels.18.12.08.Nikki.J...
TransAngels.18.10.25.Aubrey....
ThisGirlSucks.18.12.26.Cara....
TransAngels.18.09.08.Alisia....
WhenGirlsPlay.18.12.27.Hanna...
WhenGirlsPlay.18.12.25.Julia...
StepSiblingsCaught.18.12.27....
SimplyAnal.18.12.27.Camila.S...
TransAngels.18.09.17.Korra.D...

3D
Blade.Runner.2049.3D.2017.Ge...
Walhalla.Rising.3D.2009.DUAL...
Sleepwalker.3D.2011.DUAL.COM...
Bis.an.die.Grenzen.des.Unive...
Best.of.3D.vol.13.-.15.GERMA...
Limbradur.und.die.Magie.der....
Kaluoka.Hina.Das.Zauberriff....
Limbradur.und.die.Magie.der....
Smallfoot.3D.2018.COMPLETE.B...
Smallfoot.Ein.eisigartiges.A...
Skyscraper.3D.2018.German.DL...
Meg.3D.2018.MULTi.COMPLETE.B...
Meg.3D.2018.German.DL.1080p....
Gans.im.Glueck.3D.2018.MULTi...
The.Art.of.Flight.3D.2011.Ge...

Old_Stuff
Todfreunde.aka.Bad.Influence...
Animatrix.2003.German.DL.108...
Animatrix.2003.German.DL.720...
Akte.X.S06.German.DTS.DL.108...
The.Beauty.of.Gemina.Minor.S...
ZZ.Top.Live.from.Texas.2008....
Peter.Hase.2018.German.DL.10...
Akte.X.S05.German.DTS.DL.108...
Akte.X.S04.German.DTS.DL.108...
Akte.X.S03.German.DTS.DL.108...
Dunkirk.1958.COMPLETE.BLURAY...
Das.Wunder.von.Manhattan.199...
The.Amazing.Spiderman.2.Rise...
Rise.of.the.Predator.2014.Ge...
Detective.Dee.und.das.Geheim...

Filme
The.Good.Doctor.S02.German.D...
The.Good.Doctor.S02.German.D...
Berlin.Station.S03.GERMAN.DL...
Berlin.Station.S03.GERMAN.72...
A.Star.is.Born.2018.German.A...
Die.Rueckkehr.des.Eisvogels....
Leaves.of.Grass.2009.German....
Die.Wendeltreppe.1946.German...
The.Saint.-.Der.Mann.ohne.Na...
The.Saint.-.Der.Mann.ohne.Na...
360.Grad.Geo.Reportage.E511....
Smallfoot.Ein.eisigartiges.A...
Sherlock.Holmes.Das.Haus.des...
Sherlock.Holmes.Das.Zeichen....
Sherlock.Holmes.Der.Koenig.d...
Sherlock.Holmes.Der.begehrte...
Orange.is.the.New.Black.S01-...
360.Grad.Geo.Reportage.E510....
Sherlock.Holmes.Das.Spinnenn...
The.Nun.2018.German.DL.2160p...
Tom.Sawyers.Abenteuer.1973.G...
Die.Bucht.2009.German.AC3D.D...
Two.and.a.half.Men.S01.COMPL...
Lucky.Number.Slevin.2006.Ger...

 
 
Maniac.REMASTERED.GERMAN.1980.DL.1080p.BluRay.x264-GOREHOUNDS

Jahr: 1980
Genre: Horror, Thriller, Splatter
Sprache: Deutsch AC3 | Englisch DTS
Laufzeit: 1h 28mn
Bitrate: 14.2 Mbps
Format: MKV
Größe: 8.75 GiB
Release:

Beschreibung:

Tagsüber lebt Frank Zito (J. Spinell) zurückgezogen in seiner New Yorker Wohnung, nachts fröhnt er dagegen seiner mörderischen Passion: Er tötet junge Frauen und skalpiert sie, um damit Schaufensterpuppen in seiner Wohnung zu dekorieren. Für Frank sind diese Puppen der Ersatz für seine Mutter, eine mittlerweile verstorbene Prostituierte, von der Frank als Kind misshandelt wurde.
Immer mehr steigert er sich in seine Schizophrenie und kann bald Realität und Einbildung nicht mehr voneinander unterscheiden.



Complete name                            : gh-maniacremastered1080.mkv
Format                                   : Matroska
Format version                           : Version 2
File size                                : 8.75 GiB
Duration                                 : 1h 28mn
Overall bit rate                         : 14.2 Mbps
Encoded date                             : UTC 2019-01-07 18:30:08
Writing application                      : mkvmerge v30.1.0 ('Forever And More') 64-bit
Writing library                          : libebml v1.3.6 + libmatroska v1.4.9
DURATION                                 : 01:24:03.539000000
NUMBER_OF_FRAMES                         : 778
NUMBER_OF_BYTES                          : 23068
_STATISTICS_WRITING_APP                  : mkvmerge v30.1.0 ('Forever And More') 64-bit
_STATISTICS_WRITING_DATE_UTC             : 2019-01-07 18:30:08
_STATISTICS_TAGS                         : BPS DURATION NUMBER_OF_FRAMES NUMBER_OF_BYTES

Video
ID                                       : 1
Format                                   : AVC
Format/Info                              : Advanced Video Codec
Format profile                           : High@L4.1
Format settings, CABAC                   : Yes
Format settings, ReFrames                : 4 frames
Codec ID                                 : V_MPEG4/ISO/AVC
Duration                                 : 1h 28mn
Bit rate                                 : 12.9 Mbps
Width                                    : 1 920 pixels
Height                                   : 1 040 pixels
Display aspect ratio                     : 1.85:1
Frame rate mode                          : Constant
Frame rate                               : 23.976 fps
Color space                              : YUV
Chroma subsampling                       : 4:2:0
Bit depth                                : 8 bits
Scan type                                : Progressive
Bits/(Pixel*Frame)                       : 0.270
Stream size                              : 7.78 GiB (89%)
Writing library                          : x264 core 157 r2935 545de2f
Encoding settings                        : cabac=1 / ref=4 / deblock=1:-1:-1 / analyse=0x3:0x133 / me=umh / subme=8 / psy=1 / psy_rd=1.00:0.15 / mixed_ref=1 / me_range=16 / chroma_me=1 / trellis=2 / 8x8dct=1 / cqm=0 / deadzone=21,11 / fast_pskip=0 / chroma_qp_offset=-3 / threads=12 / lookahead_threads=2 / sliced_threads=0 / nr=0 / decimate=1 / interlaced=0 / bluray_compat=0 / constrained_intra=0 / bframes=3 / b_pyramid=2 / b_adapt=2 / b_bias=0 / direct=3 / weightb=1 / open_gop=0 / weightp=2 / keyint=240 / keyint_min=23 / scenecut=40 / intra_refresh=0 / rc_lookahead=50 / rc=2pass / mbtree=1 / bitrate=12927 / ratetol=1.0 / qcomp=0.60 / qpmin=0 / qpmax=69 / qpstep=4 / cplxblur=20.0 / qblur=0.5 / vbv_maxrate=62500 / vbv_bufsize=78125 / nal_hrd=none / filler=0 / ip_ratio=1.40 / aq=1:1.00
Default                                  : Yes
Forced                                   : No

Audio #1
ID                                       : 2
Format                                   : AC-3
Format/Info                              : Audio Coding 3
Mode extension                           : CM (complete main)
Format settings, Endianness              : Big
Codec ID                                 : A_AC3
Duration                                 : 1h 28mn
Bit rate mode                            : Constant
Bit rate                                 : 320 Kbps
Channel(s)                               : 2 channels
Channel positions                        : Front: L R
Sampling rate                            : 48.0 KHz
Bit depth                                : 16 bits
Compression mode                         : Lossy
Stream size                              : 202 MiB (2%)
Language                                 : German
Default                                  : Yes
Forced                                   : No

Audio #2
ID                                       : 3
Format                                   : DTS
Format/Info                              : Digital Theater Systems
Mode                                     : 16
Format settings, Endianness              : Big
Codec ID                                 : A_DTS
Duration                                 : 1h 28mn
Bit rate mode                            : Constant
Bit rate                                 : 960 Kbps
Channel(s)                               : 6 channels
Channel positions                        : Front: L C R, Side: L R, LFE
Sampling rate                            : 48.0 KHz
Bit depth                                : 24 bits
Compression mode                         : Lossy
Stream size                              : 606 MiB (7%)
Language                                 : English
Default                                  : No
Forced                                   : No

Text #1
ID                                       : 4
Format                                   : UTF-8
Codec ID                                 : S_TEXT/UTF8
Codec ID/Info                            : UTF-8 Plain Text
Language                                 : German
Default                                  : No
Forced                                   : No

Text #2
ID                                       : 5
Format                                   : UTF-8
Codec ID                                 : S_TEXT/UTF8
Codec ID/Info                            : UTF-8 Plain Text
Language                                 : English
Default                                  : No
Forced                                   : No


Download:
Share Online Share OnlineShare OnlineShare Online
 

Kommentare