HD-AREA wünscht Euch eine besinnliche Weihnachtszeit ;)

DNS SERVER AENDERNum der staatlichen Zensur zu umgehen. Sollten wir von eurem Provider geseprrt werden, nutzt den TOR BROWSER oder ändert euren DNS SERVER.

Filmwünsche können bei uns im Forum abgegeben werden

Wir Speichern Nicht




 
 
 
Top Releases
The.Last.Movie.Star.2017.Ger...
The.Equalizer.2.2018.German....
The.Last.Movie.Star.2017.Ger...
BlacKkKlansman.2018.MULTi.CO...
Black.47.2018.German.DTS.HD....
Black.47.2018.MULTi.COMPLETE...
BlacKkKlansman.2018.German.D...
BlacKkKlansman.2018.German.7...
The.Last.Movie.Star.2017.Ger...
Black.47.2018.German.720p.Bl...

Cinedubs
Night.School.2018.GERMAN.DL....
Night.School.2018.GERMAN.DL....
Gaensehaut.2.Gruseliges.Hall...
Gaensehaut.2.Gruseliges.Hall...
Unknown.User.2.Dark.Web.Germ...
Unknown.User.2.Dark.Web.Germ...
Peppermint.Angel.of.Vengeanc...
Peppermint.Angel.of.Vengeanc...
Venom.German.DL.AC3.Dubbed.1...
Venom.2018.German.AC3D.5.1.D...

Neuerscheinungen 2017-18
Gotti.A.Real.American.Godfat...
Mandy.the.Haunted.Doll.2018....
Mandy.the.Haunted.Doll.2018....
Mandy.the.Haunted.Doll.2018....
Mandy.the.Haunted.Doll.Mandy...
Wildling.2018.German.DL.1080...
Wildling.2018.German.720p.Bl...
Breaking.In.2018.German.DTS....
Breaking.In.2018.German.DTS....
I.Still.See.You.Sie.lassen.d...

XXX
MySistersHotFriend.18.12.03....
MatureNL.18.11.20.Annabelle....
MetArt.18.12.02.Sandie.Thril...
HandsOnHardcore.18.12.01.Tin...
FatManFuck.17.10.22.Cherry.X...
FatManFuck.17.09.28.Savannah...
Kemaco.29.XXX.720p.WEBRip.MP...
LANewGirl.18.11.25.Hanna.Ret...
MatureNL.18.11.08.Alexa.Blun...
LANewGirl.18.11.27.Kinsley.M...
LittleCapriceDreams.18.11.23...
MatureNL.18.11.13.Beau.Diamo...
MatureNL.18.11.16.Cassie.Ell...
KimberLeeLive.18.12.01.Teach...
LivingWithAPornstar.18.12.03...
MatureNL.18.11.06.Allison.An...
KimberLeeLive.18.11.24.Am.I....
MatureNL.18.11.02.Gina.Feroc...
Killergram.18.12.01.Karina.G...
Hitzefrei.18.10.31.Nina.Vega...

3D
Gans.im.Glueck.3D.2018.MULTi...
The.Art.of.Flight.3D.2011.Ge...
The.End.Of.The.World.3D.2010...
The.First.Avenger.Civil.War....
Die.Unglaublichen.2.2018.3D....
Skyscraper.3D.2018.MULTi.COM...
Ant-Man.And.The.Wasp.3D.2018...
Ant.Man.and.the.Wasp.3D.2018...
Die.Unglaublichen.2.3D.2018....
Die.Unglaublichen.2.2018.3D....
Die.Unglaublichen.2.2018.3D....
Sharknado.6.The.Last.One.3D....
Deep.Kleine.Helden.der.Tiefs...
Deep.3D.2017.MULTI.COMPLETE....
Detective.Dee.und.die.Legend...

Old_Stuff
Akte.X.S04.German.DTS.DL.108...
Akte.X.S03.German.DTS.DL.108...
Dunkirk.1958.COMPLETE.BLURAY...
Das.Wunder.von.Manhattan.199...
The.Amazing.Spiderman.2.Rise...
Rise.of.the.Predator.2014.Ge...
Detective.Dee.und.das.Geheim...
Detective.Dee.Und.Der.Fluch....
Ghost.Rider.Spirit.of.Vengea...
Species.IV.Das.Erwachen.2007...
Species.IV.Das.Erwachen.2007...
Hotel.Transsilvanien.2012.Ge...
The.Dead.2010.German.DL.1080...
The.Dead.2.India.2013.German...
Britney.Spears.Live.The.Femm...

Filme
Vikings.S05.GERMAN.1080p.Web...
Vikings.S05.GERMAN.720p.WebH...
The.Gifted.S02.GERMAN.DL.108...
The.Gifted.S02.GERMAN.720p.H...
Riverdale.US.S03.GERMAN.DL.1...
Riverdale.US.S03.GERMAN.DL.7...
Krypton.S01.COMPLETE.GERMAN....
Get.Shorty.S02.German.DD51.S...
Get.Shorty.S02.German.DD51.S...
Swedish.Dicks.S02.GERMAN.720...
Mission.Impossible.Fallout.2...
Swedish.Dicks.S02.German.DD2...
Vikings.S05.German.DD+51.DL....
Vikings.S05.German.DD+51.DL....
Halloween.II.1981.Remastered...
Ich.Einfach.unverbesserlich....
Category.7.Das.Ende.der.Welt...
Heut.gehn.wir.bummeln.1949.G...
Red.Scorpion.UNRATED.German....
Redbelt.German.DL.1080p.BluR...
Reflecting.Skin.Schrei.in.de...
Regression.2015.German.DL.10...
Red.White.and.Blue.2010.Germ...
Ravenous.1999.GERMAN.AC3D.DL...

 
 
Ant.Man.and.the.Wasp.3D.2018.German.DL.1080p.BluRay.x264-BluRay3D

Jahr: 2018
Genre: Action | Abenteuer | Sci-Fi
Sprache: Deutsch AC3 | Englisch DTS
Laufzeit: 1h 58mn
Bitrate: 6 077 Kbps
Format: MKV
Größe: 5.01 GiB
Release:

Beschreibung:
Seit den Ereignissen von „The First Avenger: Civil War“ steht Scott Lang alias Ant-Man (Paul Rudd), der im Spezialanzug seine Körpergröße massiv verändern kann, unter Hausarrest. Die meiste Zeit verbringt er nun einfach damit, ein guter Vater für seine Tochter Cassie (Abby Ryder Fortson) zu sein. Doch kurz vor Ablauf seiner Strafe wird er von seinem Mentor Dr. Hank Pym (Michael Douglas) und dessen Tochter Hope van Dyne (Evangeline Lilly) aus seinem Alltagstrott und wieder zurück ins Abenteuer gerissen. Scott soll Hank und Hope bei der Suche nach Hopes Mutter Janet (Michelle Pfeiffer) helfen, die vor langer Zeit bei einer gefährlichen Mission im subatomaren Raum verschwand. Doch bei ihrer Mission geraten Scott, Hope und Hank mit der mysteriösen Ghost (Hannah John-Kamen) aneinander, die ihre ganz eigenen Ziele verfolgt...


Complete name                            : br3d-antmanwasp_1080p.mkv
Format                                   : Matroska
Format version                           : Version 4 / Version 2
File size                                : 5.01 GiB
Duration                                 : 1h 58mn
Overall bit rate                         : 6 077 Kbps
Encoded date                             : UTC 2018-11-10 10:15:36
Writing application                      : mkvmerge v19.0.0 ('Brave Captain') 64-bit
Writing library                          : libebml v1.3.5 + libmatroska v1.4.8
DURATION                                 : 00:06:44.901000000
NUMBER_OF_FRAMES                         : 2
NUMBER_OF_BYTES                          : 23344
_STATISTICS_WRITING_APP                  : mkvmerge v19.0.0 ('Brave Captain') 64-bit
_STATISTICS_WRITING_DATE_UTC             : 2018-11-10 10:15:36
_STATISTICS_TAGS                         : BPS DURATION NUMBER_OF_FRAMES NUMBER_OF_BYTES

Video
ID                                       : 1
Format                                   : AVC
Format/Info                              : Advanced Video Codec
Format profile                           : High@L4.1
MultiView_Count                          : 2
MultiView_Layout                         : Side by Side (left eye first)
Format settings, CABAC                   : Yes
Format settings, ReFrames                : 4 frames
Codec ID                                 : V_MPEG4/ISO/AVC
Duration                                 : 1h 58mn
Bit rate                                 : 3 935 Kbps
Width                                    : 1 920 pixels
Height                                   : 1 016 pixels
Display aspect ratio                     : 1.890
Frame rate mode                          : Constant
Frame rate                               : 23.976 fps
Color space                              : YUV
Chroma subsampling                       : 4:2:0
Bit depth                                : 8 bits
Scan type                                : Progressive
Bits/(Pixel*Frame)                       : 0.084
Stream size                              : 3.25 GiB (65%)
Writing library                          : x264 core 157 r2935 545de2f
Encoding settings                        : cabac=1 / ref=4 / deblock=1:-1:-1 / analyse=0x3:0x133 / me=umh / subme=7 / psy=1 / psy_rd=1.00:0.15 / mixed_ref=1 / me_range=16 / chroma_me=1 / trellis=1 / 8x8dct=1 / cqm=0 / deadzone=21,11 / fast_pskip=0 / chroma_qp_offset=-3 / threads=16 / lookahead_threads=2 / sliced_threads=0 / nr=0 / decimate=1 / interlaced=0 / bluray_compat=0 / constrained_intra=0 / bframes=3 / b_pyramid=2 / b_adapt=1 / b_bias=0 / direct=1 / weightb=1 / open_gop=0 / weightp=2 / keyint=250 / keyint_min=23 / scenecut=40 / intra_refresh=0 / rc_lookahead=40 / rc=crf / mbtree=1 / crf=20.0 / qcomp=0.60 / qpmin=0 / qpmax=69 / qpstep=4 / ip_ratio=1.40 / aq=1:1.00
Default                                  : Yes
Forced                                   : No

Audio #1
ID                                       : 2
Format                                   : AC-3
Format/Info                              : Audio Coding 3
Mode extension                           : CM (complete main)
Format settings, Endianness              : Big
Codec ID                                 : A_AC3
Duration                                 : 1h 58mn
Bit rate mode                            : Constant
Bit rate                                 : 512 Kbps
Channel(s)                               : 6 channels
Channel positions                        : Front: L C R, Side: L R, LFE
Sampling rate                            : 48.0 KHz
Bit depth                                : 16 bits
Compression mode                         : Lossy
Stream size                              : 433 MiB (8%)
Language                                 : German
Default                                  : Yes
Forced                                   : No

Audio #2
ID                                       : 3
Format                                   : DTS
Format/Info                              : Digital Theater Systems
Mode                                     : 16
Format settings, Endianness              : Big
Codec ID                                 : A_DTS
Duration                                 : 1h 58mn
Bit rate mode                            : Constant
Bit rate                                 : 1 509 Kbps
Channel(s)                               : 6 channels
Channel positions                        : Front: L C R, Side: L R, LFE
Sampling rate                            : 48.0 KHz
Bit depth                                : 24 bits
Compression mode                         : Lossy
Stream size                              : 1.24 GiB (25%)
Language                                 : English
Default                                  : No
Forced                                   : No

Text
ID                                       : 4
Format                                   : VobSub
Muxing mode                              : zlib
Codec ID                                 : S_VOBSUB
Codec ID/Info                            : The same subtitle format used on DVDs
Language                                 : German
Default                                  : Yes
Forced                                   : Yes


Download:
Share Online Share OnlineShare OnlineShare Online
 

Kommentare