DNS SERVER AENDERNum der staatlichen Zensur zu umgehen. Sollten wir von eurem Provider geseprrt werden, nutzt den TOR BROWSER oder ändert euren DNS SERVER.

Filmwünsche können bei uns im Forum abgegeben werden

Wir Speichern Nicht




 
 
 
Top Releases
Das.Haus.der.geheimnisvollen...
Leave.No.Trace.2018.German.D...
Leave.No.Trace.2018.German.D...
Das.Haus.der.geheimnisvollen...
Alpha.2018.German.1080p.DL.D...
Alpha.2018.German.DTS.DL.108...
Manchester.by.the.Sea.2016.G...
Summer.of.84.2018.German.DL....
Mile.22.2018.German.DL.AC3.D...
Mile.22.2018.German.DL.AC3.D...

Cinedubs
Dont.Worry.weglaufen.geht.ni...
Dont.Worry.weglaufen.geht.ni...
Gaensehaut.2.Gruseliges.Hall...
Aquaman.TS.LD.German.DL.720p...
Eho.Echo.German.720p.WEBRip....
Eho.Echo.German.1080p.WEBRip...
Bad.Times.at.the.El.Royale.2...
Bad.Spies.2018.German.DL.AC3...
Aquaman.2018.GERMAN.AC3.MD.7...
Bad.Spies.German.DL.AC3.Dubb...

Neuerscheinungen 2018-19
Ab.durch.die.Hecke.Over.The....
Ein.verlockendes.Spiel.2008....
Ein.verlockendes.Spiel.2008....
Welcome.Home.2018.German.AC3...
Der.mit.dem.Schlag.2016.GERM...
Kryo.2016.GERMAN.720p.HDTV.x...
The.Nun.2018.MULTi.COMPLETE....
Mein.bester.Feind.German.AC3...
Superfly.2018.German.AC3.5.1...
Superfly.2018.German.DL.AC3....

XXX
TransAngels.18.10.20.Dita.Di...
SweetheartVideo.18.12.27.Gin...
WildOnCam.18.12.27.Scarlett....
TransAngels.18.10.11.Aubrey....
TransAngels.18.10.27.Domino....
WcpClub.18.12.28.Jayden.Star...
TransAngels.18.09.29.Aubrey....
TransAngels.18.11.03.Jane.Ma...
TransAngels.18.10.08.Natalie...
TransAngels.18.09.20.Chanel....
Shoplyfter.18.12.26.Harmony....
TransAngels.18.11.24.Katrina...
Sounds.Of.Fury.XXX.720p.WEBR...
WankItNow.18.12.25.Laura.Chr...
WildOnCam.18.12.26.Britney.A...
TransAngels.18.12.08.Nikki.J...
TransAngels.18.10.25.Aubrey....
ThisGirlSucks.18.12.26.Cara....
TransAngels.18.09.08.Alisia....
WhenGirlsPlay.18.12.27.Hanna...

3D
Blade.Runner.2049.3D.2017.Ge...
Walhalla.Rising.3D.2009.DUAL...
Sleepwalker.3D.2011.DUAL.COM...
Bis.an.die.Grenzen.des.Unive...
Best.of.3D.vol.13.-.15.GERMA...
Limbradur.und.die.Magie.der....
Kaluoka.Hina.Das.Zauberriff....
Limbradur.und.die.Magie.der....
Smallfoot.3D.2018.COMPLETE.B...
Smallfoot.Ein.eisigartiges.A...
Skyscraper.3D.2018.German.DL...
Meg.3D.2018.MULTi.COMPLETE.B...
Meg.3D.2018.German.DL.1080p....
Gans.im.Glueck.3D.2018.MULTi...
The.Art.of.Flight.3D.2011.Ge...

Old_Stuff
Todfreunde.aka.Bad.Influence...
Animatrix.2003.German.DL.108...
Animatrix.2003.German.DL.720...
Akte.X.S06.German.DTS.DL.108...
The.Beauty.of.Gemina.Minor.S...
ZZ.Top.Live.from.Texas.2008....
Peter.Hase.2018.German.DL.10...
Akte.X.S05.German.DTS.DL.108...
Akte.X.S04.German.DTS.DL.108...
Akte.X.S03.German.DTS.DL.108...
Dunkirk.1958.COMPLETE.BLURAY...
Das.Wunder.von.Manhattan.199...
The.Amazing.Spiderman.2.Rise...
Rise.of.the.Predator.2014.Ge...
Detective.Dee.und.das.Geheim...

Filme
The.Good.Doctor.S02.German.D...
The.Good.Doctor.S02.German.D...
Berlin.Station.S03.GERMAN.DL...
Berlin.Station.S03.GERMAN.72...
A.Star.is.Born.2018.German.A...
Die.Rueckkehr.des.Eisvogels....
Leaves.of.Grass.2009.German....
Die.Wendeltreppe.1946.German...
The.Saint.-.Der.Mann.ohne.Na...
The.Saint.-.Der.Mann.ohne.Na...
360.Grad.Geo.Reportage.E511....
Smallfoot.Ein.eisigartiges.A...
Sherlock.Holmes.Das.Haus.des...
Sherlock.Holmes.Das.Zeichen....
Sherlock.Holmes.Der.Koenig.d...
Sherlock.Holmes.Der.begehrte...
Orange.is.the.New.Black.S01-...
360.Grad.Geo.Reportage.E510....
Sherlock.Holmes.Das.Spinnenn...
The.Nun.2018.German.DL.2160p...
Tom.Sawyers.Abenteuer.1973.G...
Die.Bucht.2009.German.AC3D.D...
Two.and.a.half.Men.S01.COMPL...
Lucky.Number.Slevin.2006.Ger...

 
 
The.Gifted.S02.GERMAN.DL.1080p.HDTV.h264.INTERNAL-ACED

Jahr: 2018
Genre: Action | Drama | Fantasy
Sprache: Deutsch AC3 | Englisch AC3
Laufzeit: 41min je Folge
Bitrate: 6800 Kbps
Format: MKV
Größe: 2,2 GB je Folge
Release:

Beschreibung:

Die Marvel-Serie „The Gifted“ dreht sich um ein normales Elternpaar mit außergewöhnlichen Kindern. Außergewöhnlich, da sie Mutanten sind. Als solche geraten sie ins Visier der Regierung, sodass die gesamte Familie flüchten muss und sich einer Untergrundorganisation von anderen verfolgten Mutanten anschließt.

Die Eltern, Kate und Reed Strucker, werden von Amy Acker und Stephen Moyer gespielt. Reed ist ein ambitionierter Staatsanwalt, der versucht seinen Job und seine Familie unter einen Hut zu bekommen. Doch eigentlich befinden sich die beiden im Scheidungsprozess, doch dann verändert sich für die Familie auf tragische Weise alles.

Natalie Alyn Lind spielt Lauren, eines der Kinder mit Mutantenkräften. Sie wird als das perfekte Kind beschrieben: schlau, hübsch, beliebt und organisiert. Sohn Andy, eher ein Einzelgänger, wird von Percy Hynes-White gespielt.​

 

enthaltene Folgen:

The.Gifted.S02E01.GERMAN.DL.1080p.HDTV.h264.INTERNAL-ACED

The.Gifted.S02E02.GERMAN.DL.1080p.HDTV.h264-ACED 

The.Gifted.S02E03.GERMAN.DL.1080p.HDTV.h264-ACED

The.Gifted.S02E04.GERMAN.DL.1080p.HDTV.h264-ACED

The.Gifted.S02E05.GERMAN.DL.1080p.HDTV.h264-ACED

The.Gifted.S02E06.GERMAN.DL.1080p.HDTV.h264-ACED

The.Gifted.S02E07.GERMAN.DL.1080p.HDTV.h264-ACED

The.Gifted.S02E08.GERMAN.DL.1080p.HDTV.h264-ACED

The.Gifted.S02E09.GERMAN.DL.1080p.HDTV.h264-ACED

The.Gifted.S02E10.GERMAN.DL.1080p.HDTV.h264-ACED NEU



General
Complete name                            : The.Gifted.S02E01.GERMAN.DL.1080p.HDTV.h264.INTERNAL-ACED\The.Gifted.S02E01.GERMAN.DL.1080p.HDTV.h264.INTERNAL-ACED.mkv
Format                                   : Matroska
Format version                           : Version 2
File size                                : 2.23 GiB
Duration                                 : 41mn 9s
Overall bit rate                         : 7 770 Kbps
Encoded date                             : UTC 2018-11-08 14:59:48
Writing application                      : mkvmerge v28.2.0 ('The Awakening') 64-bit
Writing library                          : libebml v1.3.6 + libmatroska v1.4.9
DURATION                                 : 00:41:09.120000000
NUMBER_OF_FRAMES                         : 77160
NUMBER_OF_BYTES                          : 118517760
_STATISTICS_WRITING_APP                  : mkvmerge v28.2.0 ('The Awakening') 64-bit
_STATISTICS_WRITING_DATE_UTC             : 2018-11-08 14:59:48
_STATISTICS_TAGS                         : BPS DURATION NUMBER_OF_FRAMES NUMBER_OF_BYTES

Video
ID                                       : 1
Format                                   : AVC
Format/Info                              : Advanced Video Codec
Format profile                           : High@L4.0
Format settings, CABAC                   : Yes
Format settings, ReFrames                : 4 frames
Codec ID                                 : V_MPEG4/ISO/AVC
Duration                                 : 41mn 9s
Bit rate                                 : 6 847 Kbps
Width                                    : 1 920 pixels
Height                                   : 1 080 pixels
Display aspect ratio                     : 16:9
Frame rate mode                          : Constant
Frame rate                               : 25.000 fps
Standard                                 : Component
Color space                              : YUV
Chroma subsampling                       : 4:2:0
Bit depth                                : 8 bits
Scan type                                : MBAFF
Bits/(Pixel*Frame)                       : 0.132
Stream size                              : 1.97 GiB (88%)
Default                                  : No
Forced                                   : No
Color primaries                          : BT.709
Transfer characteristics                 : BT.709
Matrix coefficients                      : BT.709
DURATION                                 : 00:41:09.120000000
NUMBER_OF_FRAMES                         : 61733
NUMBER_OF_BYTES                          : 2160315103
_STATISTICS_WRITING_APP                  : mkvmerge v28.2.0 ('The Awakening') 64-bit
_STATISTICS_WRITING_DATE_UTC             : 2018-11-08 14:59:48
_STATISTICS_TAGS                         : BPS DURATION NUMBER_OF_FRAMES NUMBER_OF_BYTES

Audio #1
ID                                       : 2
Format                                   : AC-3
Format/Info                              : Audio Coding 3
Mode extension                           : CM (complete main)
Format settings, Endianness              : Big
Codec ID                                 : A_AC3
Duration                                 : 41mn 9s
Bit rate mode                            : Constant
Bit rate                                 : 384 Kbps
Channel(s)                               : 6 channels
Channel positions                        : Front: L C R, Side: L R, LFE
Sampling rate                            : 48.0 KHz
Bit depth                                : 16 bits
Compression mode                         : Lossy
Delay relative to video                  : -40ms
Stream size                              : 113 MiB (5%)
Language                                 : German
Default                                  : Yes
Forced                                   : No

Audio #2
ID                                       : 3
Format                                   : AC-3
Format/Info                              : Audio Coding 3
Mode extension                           : CM (complete main)
Format settings, Endianness              : Big
Codec ID                                 : A_AC3
Duration                                 : 41mn 9s
Bit rate mode                            : Constant
Bit rate                                 : 384 Kbps
Channel(s)                               : 6 channels
Channel positions                        : Front: L C R, Side: L R, LFE
Sampling rate                            : 48.0 KHz
Bit depth                                : 16 bits
Compression mode                         : Lossy
Delay relative to video                  : -40ms
Stream size                              : 113 MiB (5%)
Language                                 : English
Default                                  : No
Forced                                   : No



Download:
Share-Online.biz Share-Online.bizShare-Online.bizShare-Online.biz | Rapidgator.net Rapidgator.netRapidgator.netRapidgator.net
 

Kommentare