Filecrypt zeigt vereinzelt Files als "n/a". Die Downloads sind trotzdem komplett.

DNS SERVER AENDERNum der staatlichen Zensur zu umgehen. Sollten wir von eurem Provider geseprrt werden, nutzt den TOR BROWSER oder ändert euren DNS SERVER.

Filmwünsche können bei uns im Forum abgegeben werden

Wir Speichern Nicht




 
 
 
Top Releases
Cam.2018.German.DL.1080p.WEB...
Cam.2018.German.DL.720p.WEB....
Teen.Titans.Go.To.the.Movies...
The.Ballad.of.Buster.Scruggs...
Teen.Titans.Go.To.the.Movies...
The.Ballad.of.Buster.Scruggs...
Logan.The.Wolverine.2017.NOI...
Mandy.2018.German.DL.1080p.B...
Mandy.2018.MULTi.COMPLETE.BL...
Zoe.2018.German.AC3.DL.1080p...

Cinedubs
Christopher.Robin.German.DL....
Christopher.Robin.German.DL....
A.Star.Is.Born.German.DL.AC3...
A.Star.Is.Born.German.DL.AC3...
Mission.Impossible.Fallout.G...
Mission.Impossible.Fallout.G...
Sicario.2.2018.German.DL.AC3...
Juliet.Naked.2018.GERMAN.DL....
Juliet.Naked.2018.GERMAN.DL....
10x10.2018.German.AC3D.DL.10...

Neuerscheinungen 2017-18
In.Darkness.Die.Wahrheit.lie...
In.Darkness.Die.Wahrheit.lie...
Terminal.Rache.war.nie.schoe...
Terminal.Rache.war.nie.schoe...
Christmas.Wedding.Planner.20...
Christmas.Wedding.Planner.20...
Prinzessinnentausch.2018.Ger...
Prinzessinnentausch.2018.Ger...
Skyscraper.2018.MULTi.COMPLE...
Hardcover.1989.German.DL.108...

XXX
GirlsDoPorn.E481.19.Years.Ol...
GirlsDoPorn.E479.19.Years.Ol...
MetArtX.18.10.28.Alice.Shea....
MomKnowsBest.18.10.29.Alex.D...
MilfsLikeItBig.18.10.29.Arie...
GirlsDoPorn.E478.22.Years.Ol...
LittleCapriceDreams.18.10.26...
LustyGrandmas.18.02.22.Sally...
LustyGrandmas.18.02.08.Red.M...
LustyGrandmas.18.02.15.Viol....
Kemaco.27.XXX.1080p.WEBRip.M...
Lustery.E144.Natalie.And.Rya...
Lustery.E145.Luna.And.James....
Kemaco.27.XXX.720p.WEBRip.MP...
MetArtX.18.10.30.Sade.Mare.T...
MommyBlowsBest.18.10.31.Mari...
MomDrips.18.10.28.India.Summ...
GirlsDoPorn.E480.20.Years.Ol...
KarupsPC.18.10.27.Izzy.Delph...
MikesApartment.18.10.30.Lara...

3D
Skyscraper.3D.2018.MULTi.COM...
Ant-Man.And.The.Wasp.3D.2018...
Ant.Man.and.the.Wasp.3D.2018...
Die.Unglaublichen.2.3D.2018....
Die.Unglaublichen.2.2018.3D....
Die.Unglaublichen.2.2018.3D....
Sharknado.6.The.Last.One.3D....
Deep.Kleine.Helden.der.Tiefs...
Deep.3D.2017.MULTI.COMPLETE....
Detective.Dee.und.die.Legend...
Detective.Dee.und.die.Legend...
Skyscraper.3D.German.DL.AC3....
Ant-Man.and.the.Wasp.2018.3D...
Jurassic.World.Das.gefallene...
Jurassic.World.Das.gefallene...

Old_Stuff
Detective.Dee.und.das.Geheim...
Detective.Dee.Und.Der.Fluch....
Ghost.Rider.Spirit.of.Vengea...
Species.IV.Das.Erwachen.2007...
Species.IV.Das.Erwachen.2007...
Hotel.Transsilvanien.2012.Ge...
The.Dead.2010.German.DL.1080...
The.Dead.2.India.2013.German...
Britney.Spears.Live.The.Femm...
Buffy.The.Vampire.Slayer.199...
IMAX.Ride.Around.The.World.2...
Schimanski.-.Duisburg.Ruhror...
Akte.X.S02.German.DTS.DL.108...
How.I.Met.Your.Mother.S02.Ge...
Akte.X.S01.German.DTS.DL.108...

Filme
Skyscraper.2018.German.DL.21...
Skyscraper.2018.German.DL.21...
Slender.Man.2018.German.AC3....
Die.Pest.S01.D01.MULTi.COMPL...
Clive.Barkers.Book.of.Blood....
Chuka.1967.German.Uncut.AC3D...
Romeo.Is.Bleeding.1993.Germa...
Solo.1996.German.AC3D.DL.108...
To.Kill.a.Man.Rache.ist.bitt...
TJ.Next.Generation.2007.Germ...
TO.A.Space.Fantasy.2009.Germ...
Urlaub.in.Hollywood.1945.Ger...
Mamma.Mia.Here.We.Go.Again.2...
Tinkerbell.2008.German.DTS.D...
Tintenherz.German.DL.1080p.B...
Tisch.und.Bett.1970.German.1...
The.Legend.of.Hercules.2014....
Maleika.2017.GERMAN.DOKU.216...
The.Darkest.Minds.Die.Ueberl...
Aus.dem.Dschungel.in.den.Dsc...
Der.Grosse.Diktator.1940.Ger...
Plaesier.1952.German.AC3D.DL...
Die.Truman.Show.1998.German....
Crocodile.Dundee.Extended.Cu...

 
 
Zoe.2018.German.DL.1080p.BluRay.x264.PROPER-ENCOUNTERS

Jahr: 2018
Genre: Sci-Fi
Sprache: Deutsch DTS | Englisch DTS
Laufzeit: 1h 44mn
Bitrate: 6 541 Kbps
Format: MKV
Größe: 4.76 GiB
Release:

Beschreibung:

Die Kollegen Cole und Zoe arbeiten daran, romantische Beziehungen mithilfe von Computersystemen zu perfektionieren. Ihr Ziel ist es, den Menschen lebenslange Partnerschaften zu ermöglichen, ohne jegliches Leid. Hierfür übernimmt Cole ein neues Projekt: synthetische Gefährten, denen es möglich ist, menschliche Emotionen nachzuempfinden und zu verstehen. Er entwickelt Ash, einen Androiden, der eifersüchtig auf die Affäre zwischen Zoe und Cole wird und versucht, die beiden Liebenden auseinanderzubringen. Das Dreiergespann gerät in eine Spirale aus Erotik, Verwirrung, Drogen und Liebe, in der die Grenzen zwischen synthetischen und realen Gefühlen immer mehr verschwimmen.



Complete name                            : encounters-zoe2018.mkv
Format                                   : Matroska
Format version                           : Version 4 / Version 2
File size                                : 4.76 GiB
Duration                                 : 1h 44mn
Overall bit rate                         : 6 541 Kbps
Encoded date                             : UTC 2018-11-08 07:34:42
Writing application                      : mkvmerge v19.0.0 ('Brave Captain') 64-bit
Writing library                          : libebml v1.3.5 + libmatroska v1.4.8
DURATION                                 : 00:12:45.181000000
NUMBER_OF_FRAMES                         : 2
NUMBER_OF_BYTES                          : 90
_STATISTICS_WRITING_APP                  : mkvmerge v19.0.0 ('Brave Captain') 64-bit
_STATISTICS_WRITING_DATE_UTC             : 2018-11-08 07:34:42
_STATISTICS_TAGS                         : BPS DURATION NUMBER_OF_FRAMES NUMBER_OF_BYTES

Video
ID                                       : 1
Format                                   : AVC
Format/Info                              : Advanced Video Codec
Format profile                           : High@L4.1
Format settings, CABAC                   : Yes
Format settings, ReFrames                : 5 frames
Codec ID                                 : V_MPEG4/ISO/AVC
Duration                                 : 1h 44mn
Bit rate                                 : 3 392 Kbps
Width                                    : 1 920 pixels
Height                                   : 808 pixels
Display aspect ratio                     : 2.40:1
Frame rate mode                          : Constant
Frame rate                               : 23.976 fps
Color space                              : YUV
Chroma subsampling                       : 4:2:0
Bit depth                                : 8 bits
Scan type                                : Progressive
Bits/(Pixel*Frame)                       : 0.091
Stream size                              : 2.47 GiB (52%)
Writing library                          : x264 core 157 r2935 545de2f
Encoding settings                        : cabac=1 / ref=5 / deblock=1:-1:-1 / analyse=0x3:0x133 / me=umh / subme=7 / psy=1 / psy_rd=1.00:0.15 / mixed_ref=1 / me_range=16 / chroma_me=1 / trellis=1 / 8x8dct=1 / cqm=0 / deadzone=21,11 / fast_pskip=0 / chroma_qp_offset=-3 / threads=16 / lookahead_threads=2 / sliced_threads=0 / nr=0 / decimate=1 / interlaced=0 / bluray_compat=0 / constrained_intra=0 / bframes=3 / b_pyramid=2 / b_adapt=1 / b_bias=0 / direct=1 / weightb=1 / open_gop=0 / weightp=2 / keyint=250 / keyint_min=23 / scenecut=40 / intra_refresh=0 / rc_lookahead=40 / rc=crf / mbtree=1 / crf=20.0 / qcomp=0.60 / qpmin=0 / qpmax=69 / qpstep=4 / ip_ratio=1.40 / aq=1:1.00
Default                                  : Yes
Forced                                   : No

Audio #1
ID                                       : 2
Format                                   : DTS
Format/Info                              : Digital Theater Systems
Mode                                     : 16
Format settings, Endianness              : Big
Codec ID                                 : A_DTS
Duration                                 : 1h 44mn
Bit rate mode                            : Constant
Bit rate                                 : 1 509 Kbps
Channel(s)                               : 6 channels
Channel positions                        : Front: L C R, Side: L R, LFE
Sampling rate                            : 48.0 KHz
Bit depth                                : 24 bits
Compression mode                         : Lossy
Stream size                              : 1.10 GiB (23%)
Language                                 : German
Default                                  : Yes
Forced                                   : No

Audio #2
ID                                       : 3
Format                                   : DTS
Format/Info                              : Digital Theater Systems
Mode                                     : 16
Format settings, Endianness              : Big
Codec ID                                 : A_DTS
Duration                                 : 1h 44mn
Bit rate mode                            : Constant
Bit rate                                 : 1 509 Kbps
Channel(s)                               : 6 channels
Channel positions                        : Front: L C R, Side: L R, LFE
Sampling rate                            : 48.0 KHz
Bit depth                                : 24 bits
Compression mode                         : Lossy
Stream size                              : 1.10 GiB (23%)
Language                                 : English
Default                                  : No
Forced                                   : No

Text
ID                                       : 4
Format                                   : UTF-8
Codec ID                                 : S_TEXT/UTF8
Codec ID/Info                            : UTF-8 Plain Text
Language                                 : German
Default                                  : Yes
Forced                                   : Yes


Download:
Share Online Share OnlineShare OnlineShare Online
 

Kommentare